TVBI无线新天地
登陆 / 注册 搜索

USERCENTER

SEARCHSITE

搜索

查看: 1904|回復: 0

[灾难] 火烧摩天楼

[複製鏈接]
tvbi 發表於 2016-4-22 19:31:58 | 顯示全部樓層 |閱讀模式
49ed73b51cbf58ee76a5c7554e30959a.jpg
◎译  名 火烧摩天楼/摩天大楼失火记/冲天大火灾
◎片  名 The Towering Inferno
◎年  代 1974
◎国  家 美国
◎类  别 动作/惊悚/灾难
◎语  言 英语
◎上映日期 1974-12-10
◎IMDb评分  6.9/10 from 29,386 users
◎豆瓣评分 7.6/10 from 1,359 users
◎片  长 165 分钟
◎导  演 约翰·吉勒明 John Guillermin
◎主  演 史蒂夫·麦奎因 Steve McQueen
      保罗·纽曼 Paul Newman
      威廉·霍尔登 William Holden
      费·唐纳薇 Faye Dunaway
      弗雷德·阿斯泰尔 Fred Astaire
      罗伯特·沃恩 Robert Vaughn

◎简  介

  建筑设计师道格(保罗•纽曼 Paul Newman 饰)在自己设计的旧金山摩天大楼竣工之际,希望抛开工作,开始计划已久的远行,然而此时,主仓库传来了报警信号,在大楼指挥中心哈里协助下,道格查明保险终端柜没有绝缘保护,而整栋大楼的电路都远没有达到自己的设计要求。大楼建筑商邓肯和女婿罗杰为了节省建筑成本,降低了大楼防火规格。邓肯和一班各界名流齐聚于135层的舞厅庆祝大楼落成,电路系统不堪负荷终于引发明火,道格和前来灭火的消防队长迈克(史蒂夫•麦奎因 Steve McQueen 饰)力劝邓肯疏散人群。消防设施不完善的摩天楼火势很快难以控制,道格、哈里以及迈克的消防队员们各尽所能救援人群,但汹涌的大火,似乎要吞噬一切……

◎获奖情况

  第47届奥斯卡金像奖  (1975)
  最佳影片(提名) 伊尔温·艾伦
  最佳男配角(提名) 弗雷德·阿斯泰尔
  最佳摄影 Joseph F. Biroc / Fred J. Koenekamp
  最佳剪辑 哈罗德·F.克雷斯 / Carl Kress
  最佳音响(提名) Herman Lewis / 西奥多·索德伯格
  最佳美术指导(提名) William J. Creber / Raphael Bretton / Ward Preston
  剧情片最佳原创配乐(提名) 约翰·威廉姆斯
  最佳原创歌曲 Al Kasha / Joel Hirschhorn

Video
ID                                       : 1
Format                                   : AVC
Format/Info                              : Advanced Video Codec
Format profile                           : High@L4.1
Format settings, CABAC                   : Yes
Format settings, ReFrames                : 5 frames
Codec ID                                 : V_MPEG4/ISO/AVC
Duration                                 : 2h 44mn
Bit rate                                 : 9 855 Kbps
Width                                    : 1 920 pixels
Height                                   : 816 pixels
Display aspect ratio                     : 2.35:1
Frame rate mode                          : Constant
Frame rate                               : 23.976 fps
Color space                              : YUV
Chroma subsampling                       : 4:2:0
Bit depth                                : 8 bits
Scan type                                : Progressive
Bits/(Pixel*Frame)                       : 0.262
Stream size                              : 11.1 GiB (85%)
Writing library                          : x264 core 67 r1173 f6d3166
Encoding settings                        : cabac=1 / ref=5 / deblock=1:-1:-1 / analyse=0x3:0x113 / me=umh / subme=7 / psy_rd=1.0:0.0 / mixed_ref=1 / me_range=16 / chroma_me=1 / trellis=2 / 8x8dct=1 / cqm=0 / deadzone=21,11 / chroma_qp_offset=-2 / threads=6 / nr=0 / decimate=1 / mbaff=0 / bframes=3 / b_pyramid=0 / b_adapt=2 / b_bias=0 / direct=3 / wpredb=1 / keyint=250 / keyint_min=25 / scenecut=40 / rc=2pass / bitrate=9855 / ratetol=1.0 / qcomp=0.60 / qpmin=10 / qpmax=51 / qpstep=4 / cplxblur=20.0 / qblur=0.5 / vbv_maxrate=50000 / vbv_bufsize=50000 / ip_ratio=1.40 / pb_ratio=1.30 / aq=1:1.00
Language                                 : English
Default                                  : Yes
Forced                                   : No

Audio
ID                                       : 2
Format                                   : DTS
Format/Info                              : Digital Theater Systems
Mode                                     : 16
Format settings, Endianness              : Big
Codec ID                                 : A_DTS
Duration                                 : 2h 44mn
Bit rate mode                            : Constant
Bit rate                                 : 1 509 Kbps
Channel(s)                               : 6 channels
Channel positions                        : Front: L C R, Side: L R, LFE
Sampling rate                            : 48.0 KHz
Frame rate                               : 93.750 fps (512 spf)
Bit depth                                : 24 bits
Compression mode                         : Lossy
Stream size                              : 1.74 GiB (13%)
Language                                 : English
Default                                  : Yes
Forced                                   : No


The.Towering.Inferno.1974.1080p.BluRay.x264-FLHD.torrent

65.99 KB, 下載次數: 8

回復

使用道具 舉報

您需要登錄後才可以回帖 登錄 | 立即注册

本版積分規則

QQ|手机版|TVBI无线新天地

GMT+8, 2018-2-23 00:44 , Processed in 0.093870 second(s), 24 queries , Gzip On.

© 2016 TVBI无线新天地 | 环球网络

Powered by Discuz! X3.4 GUI: HQ2.0

快速回復 返回列表