TVBI无线新天地
登陆 / 注册 搜索

USERCENTER

SEARCHSITE

搜索

查看: 1277|回復: 0

[惊悚] 卡洛斯

[複製鏈接]
tvbi 發表於 2016-4-15 10:08:08 | 顯示全部樓層 |閱讀模式
721e5ac14e81046b14072b33d4404057.jpg
◎译  名 卡洛斯/胡狼卡洛斯
◎片  名 Carlos
◎年  代 2010
◎国  家 法国/德国
◎类  别 传记/犯罪/剧情/历史/惊悚
◎语  言 英语/阿拉伯语/德语/西班牙语/法语/匈牙利语/日语/俄语
◎上映日期 2010-05-19
◎IMDb评分  7.7/10 from 9,897 users
◎豆瓣评分 7.3/10 from 749 users
◎片  长 330分钟(法国戛纳电影节)/319分钟(美国纽约电影节)/165分钟(英国)/140分钟(德国)/340分钟(蓝光版)
◎导  演 奥利维耶·阿萨亚斯 Olivier Assayas
◎主  演 埃德加·拉米雷兹 Édgar Ramírez

◎简  介

  在上世纪70到80年代的世界恐怖主义历史中,从巴勒斯坦极端主义到日本赤军,卡洛斯都是无可争议的核心人物。在为中东神秘势力卖命的过程中,他一方面表现得极左,同时又唯利是图。冷战的最后几年,他以“铁幕”为背景,建立了自己的组织。影片讲述了这个国际革命家的故事,他是个操纵者,同时被玩弄于股掌,随波逐流于那个时代的历史大潮。影片还将见证他的命运的终结,在他委身于伊斯兰独裁统治的苏丹时,被法国警方抓获。卡洛斯这个矛盾的人物,同他所代表的那个时代一样狂暴。他是一个真正的谜。
  “胡狼”卡洛斯本名伊里奇·拉米雷兹·桑切斯,委内瑞拉人,是世界公认的头号恐怖分子,一名被各国警方追捕了20 年的“超级杀手”。 1975年,在维也纳绑架欧佩克11个成员国的石油部长; 1972年,策划了慕尼黑奥运会上的大屠杀;1976年,制造劫持法航飞往乌干达的班机并导致以色列对恩德培机场突袭的恐怖事件。美国合众国际社报道:卡洛斯参与了70年代至80年代数起与中东冲突有关的恐怖事件,对世界各地83名被杀的受害人负责。他以欧洲为主战场的血淋淋的疯狂表演,创造了20世纪恐怖史上最大的高潮。国际刑警的通缉令说:可以把这个人理解为一支军队。
  卡洛斯的生活是由绑架、暗杀、劫机、爆炸和女人构成的。在恐怖主义者的职业中,女人是天然的掩体,也是紧张暴烈的恐怖事业的兴奋剂、调味品和减压阀。卡洛斯的身旁,先后点缀着各种民族的一些漂亮姑娘,她们先后跌进“胡狼”用魅力和金钱织成的情网,最终又全部落进警方用通辑令、拘捕令和驱逐令撒下的罗网。
  这个被世人称为“世界第一杀手”的“胡狼”,有着谜一样的情恋经历。

◎获奖情况

  第68届金球奖  (2011)
  电视类 最佳迷你剧/电视电影

  第76届纽约影评人协会奖  (2010)
  最佳外语片


Video
ID                                       : 1
Format                                   : AVC
Format/Info                              : Advanced Video Codec
Format profile                           : High@L4.1
Format settings, CABAC                   : Yes
Format settings, ReFrames                : 5 frames
Codec ID                                 : V_MPEG4/ISO/AVC
Duration                                 : 1h 44mn
Bit rate                                 : 9 536 Kbps
Width                                    : 1 920 pixels
Height                                   : 816 pixels
Display aspect ratio                     : 2.35:1
Frame rate mode                          : Constant
Frame rate                               : 23.976 (24000/1001) fps
Color space                              : YUV
Chroma subsampling                       : 4:2:0
Bit depth                                : 8 bits
Scan type                                : Progressive
Bits/(Pixel*Frame)                       : 0.254
Stream size                              : 6.80 GiB (84%)
Writing library                          : x264 core 142 r2431 ac76440
Encoding settings                        : cabac=1 / ref=5 / deblock=1:-3:-3 / analyse=0x3:0x133 / me=umh / subme=9 / psy=1 / psy_rd=1.00:0.00 / mixed_ref=1 / me_range=24 / chroma_me=1 / trellis=1 / 8x8dct=1 / cqm=0 / deadzone=21,11 / fast_pskip=0 / chroma_qp_offset=-2 / threads=4 / lookahead_threads=1 / sliced_threads=0 / nr=0 / decimate=0 / interlaced=0 / bluray_compat=0 / constrained_intra=0 / bframes=4 / b_pyramid=2 / b_adapt=2 / b_bias=0 / direct=1 / weightb=0 / open_gop=0 / weightp=2 / keyint=230 / keyint_min=23 / scenecut=40 / intra_refresh=0 / rc_lookahead=60 / rc=2pass / mbtree=1 / bitrate=9536 / ratetol=1.0 / qcomp=0.60 / qpmin=0 / qpmax=69 / qpstep=4 / cplxblur=20.0 / qblur=0.5 / vbv_maxrate=40000 / vbv_bufsize=30000 / nal_hrd=none / filler=0 / ip_ratio=1.40 / aq=1:1.00
Language                                 : English
Default                                  : Yes
Forced                                   : No

Audio
ID                                       : 2
Format                                   : DTS
Format/Info                              : Digital Theater Systems
Mode                                     : 16
Format settings, Endianness              : Big
Codec ID                                 : A_DTS
Duration                                 : 1h 44mn
Bit rate mode                            : Constant
Bit rate                                 : 1 509 Kbps
Channel(s)                               : 6 channels
Channel positions                        : Front: L C R, Side: L R, LFE
Sampling rate                            : 48.0 KHz
Frame rate                               : 93.750 fps (512 spf)
Bit depth                                : 24 bits
Compression mode                         : Lossy
Stream size                              : 1.10 GiB (14%)
Language                                 : English
Default                                  : Yes
Forced                                   : No

Text
ID                                       : 3
Format                                   : UTF-8
Codec ID                                 : S_TEXT/UTF8
Codec ID/Info                            : UTF-8 Plain Text
Title                                    : FORCED
Language                                 : English
Default                                  : Yes
Forced                                   : Yes

Menu
00:00:00.000                             : :00:00:00.000
00:03:14.236                             : :00:03:14.236
00:07:57.644                             : :00:07:57.644
00:10:35.468                             : :00:10:35.468
00:17:29.090                             : :00:17:29.090
00:23:27.448                             : :00:23:27.448
00:35:40.930                             : :00:35:40.930
00:43:07.835                             : :00:43:07.835
00:48:49.301                             : :00:48:49.301
00:56:24.673                             : :00:56:24.673
01:07:10.985                             : :01:07:10.985
01:21:40.729                             : :01:21:40.729
01:28:40.273                             : :01:28:40.273
01:33:46.037                             : :01:33:46.037


Video
ID                                       : 1
Format                                   : AVC
Format/Info                              : Advanced Video Codec
Format profile                           : High@L4.1
Format settings, CABAC                   : Yes
Format settings, ReFrames                : 5 frames
Codec ID                                 : V_MPEG4/ISO/AVC
Duration                                 : 1h 52mn
Bit rate                                 : 9 536 Kbps
Width                                    : 1 920 pixels
Height                                   : 816 pixels
Display aspect ratio                     : 2.35:1
Frame rate mode                          : Constant
Frame rate                               : 23.976 (24000/1001) fps
Color space                              : YUV
Chroma subsampling                       : 4:2:0
Bit depth                                : 8 bits
Scan type                                : Progressive
Bits/(Pixel*Frame)                       : 0.254
Stream size                              : 7.31 GiB (84%)
Writing library                          : x264 core 142 r2431 ac76440
Encoding settings                        : cabac=1 / ref=5 / deblock=1:-3:-3 / analyse=0x3:0x133 / me=umh / subme=9 / psy=1 / psy_rd=1.00:0.00 / mixed_ref=1 / me_range=24 / chroma_me=1 / trellis=1 / 8x8dct=1 / cqm=0 / deadzone=21,11 / fast_pskip=0 / chroma_qp_offset=-2 / threads=4 / lookahead_threads=1 / sliced_threads=0 / nr=0 / decimate=0 / interlaced=0 / bluray_compat=0 / constrained_intra=0 / bframes=4 / b_pyramid=2 / b_adapt=2 / b_bias=0 / direct=1 / weightb=0 / open_gop=0 / weightp=2 / keyint=230 / keyint_min=23 / scenecut=40 / intra_refresh=0 / rc_lookahead=60 / rc=2pass / mbtree=1 / bitrate=9536 / ratetol=1.0 / qcomp=0.60 / qpmin=0 / qpmax=69 / qpstep=4 / cplxblur=20.0 / qblur=0.5 / vbv_maxrate=40000 / vbv_bufsize=30000 / nal_hrd=none / filler=0 / ip_ratio=1.40 / aq=1:1.00
Language                                 : English
Default                                  : Yes
Forced                                   : No

Audio
ID                                       : 2
Format                                   : DTS
Format/Info                              : Digital Theater Systems
Mode                                     : 16
Format settings, Endianness              : Big
Codec ID                                 : A_DTS
Duration                                 : 1h 52mn
Bit rate mode                            : Constant
Bit rate                                 : 1 509 Kbps
Channel(s)                               : 6 channels
Channel positions                        : Front: L C R, Side: L R, LFE
Sampling rate                            : 48.0 KHz
Frame rate                               : 93.750 fps (512 spf)
Bit depth                                : 24 bits
Compression mode                         : Lossy
Stream size                              : 1.18 GiB (14%)
Language                                 : English
Default                                  : Yes
Forced                                   : No

Text
ID                                       : 3
Format                                   : UTF-8
Codec ID                                 : S_TEXT/UTF8
Codec ID/Info                            : UTF-8 Plain Text
Title                                    : FORCED
Language                                 : English
Default                                  : Yes
Forced                                   : Yes

Menu
00:00:00.000                             : :00:00:00.000
00:08:05.026                             : :00:08:05.026
00:15:52.201                             : :00:15:52.201
00:20:57.465                             : :00:20:57.465
00:32:04.214                             : :00:32:04.214
00:38:44.656                             : :00:38:44.656
00:43:27.647                             : :00:43:27.647
00:47:55.956                             : :00:47:55.956
00:57:14.973                             : :00:57:14.973
01:04:14.434                             : :01:04:14.434
01:11:00.089                             : :01:11:00.089
01:14:17.662                             : :01:14:17.662
01:20:50.054                             : :01:20:50.054
01:22:55.721                             : :01:22:55.721
01:28:09.784                             : :01:28:09.784
01:36:50.888                             : :01:36:50.888
01:39:56.073                             : :01:39:56.073
01:45:01.128                             : :01:45:01.128


Video
ID                                       : 1
Format                                   : AVC
Format/Info                              : Advanced Video Codec
Format profile                           : High@L4.1
Format settings, CABAC                   : Yes
Format settings, ReFrames                : 5 frames
Codec ID                                 : V_MPEG4/ISO/AVC
Duration                                 : 2h 4mn
Bit rate                                 : 9 536 Kbps
Width                                    : 1 920 pixels
Height                                   : 816 pixels
Display aspect ratio                     : 2.35:1
Frame rate mode                          : Constant
Frame rate                               : 23.976 (24000/1001) fps
Color space                              : YUV
Chroma subsampling                       : 4:2:0
Bit depth                                : 8 bits
Scan type                                : Progressive
Bits/(Pixel*Frame)                       : 0.254
Stream size                              : 8.08 GiB (84%)
Writing library                          : x264 core 142 r2431 ac76440
Encoding settings                        : cabac=1 / ref=5 / deblock=1:-3:-3 / analyse=0x3:0x133 / me=umh / subme=9 / psy=1 / psy_rd=1.00:0.00 / mixed_ref=1 / me_range=24 / chroma_me=1 / trellis=1 / 8x8dct=1 / cqm=0 / deadzone=21,11 / fast_pskip=0 / chroma_qp_offset=-2 / threads=4 / lookahead_threads=1 / sliced_threads=0 / nr=0 / decimate=0 / interlaced=0 / bluray_compat=0 / constrained_intra=0 / bframes=4 / b_pyramid=2 / b_adapt=2 / b_bias=0 / direct=1 / weightb=0 / open_gop=0 / weightp=2 / keyint=230 / keyint_min=23 / scenecut=40 / intra_refresh=0 / rc_lookahead=60 / rc=2pass / mbtree=1 / bitrate=9536 / ratetol=1.0 / qcomp=0.60 / qpmin=0 / qpmax=69 / qpstep=4 / cplxblur=20.0 / qblur=0.5 / vbv_maxrate=40000 / vbv_bufsize=30000 / nal_hrd=none / filler=0 / ip_ratio=1.40 / aq=1:1.00
Language                                 : English
Default                                  : Yes
Forced                                   : No

Audio
ID                                       : 2
Format                                   : DTS
Format/Info                              : Digital Theater Systems
Mode                                     : 16
Format settings, Endianness              : Big
Codec ID                                 : A_DTS
Duration                                 : 2h 4mn
Bit rate mode                            : Constant
Bit rate                                 : 1 509 Kbps
Channel(s)                               : 6 channels
Channel positions                        : Front: L C R, Side: L R, LFE
Sampling rate                            : 48.0 KHz
Frame rate                               : 93.750 fps (512 spf)
Bit depth                                : 24 bits
Compression mode                         : Lossy
Stream size                              : 1.31 GiB (14%)
Language                                 : English
Default                                  : Yes
Forced                                   : No

Text
ID                                       : 3
Format                                   : UTF-8
Codec ID                                 : S_TEXT/UTF8
Codec ID/Info                            : UTF-8 Plain Text
Title                                    : FORCED
Language                                 : English
Default                                  : Yes
Forced                                   : Yes

Menu
00:00:00.000                             : :00:00:00.000
00:04:23.513                             : :00:04:23.513
00:10:37.053                             : :00:10:37.053
00:12:35.755                             : :00:12:35.755
00:17:12.698                             : :00:17:12.698
00:21:37.379                             : :00:21:37.379
00:24:38.936                             : :00:24:38.936
00:27:47.708                             : :00:27:47.708
00:35:37.427                             : :00:35:37.427
00:38:00.320                             : :00:38:00.320
00:45:20.259                             : :00:45:20.259
00:49:14.410                             : :00:49:14.410
00:54:44.781                             : :00:54:44.781
01:05:18.748                             : :01:05:18.748
01:09:50.228                             : :01:09:50.228
01:14:08.277                             : :01:14:08.277
01:20:41.503                             : :01:20:41.503
01:26:16.671                             : :01:26:16.671
01:31:27.524                             : :01:31:27.524
01:37:58.122                             : :01:37:58.122
01:42:51.916                             : :01:42:51.916
01:50:57.401                             : :01:50:57.401


回復

使用道具 舉報

您需要登錄後才可以回帖 登錄 | 立即注册

本版積分規則

QQ|手机版|TVBI无线新天地

GMT+8, 2018-7-20 01:19 , Processed in 0.055807 second(s), 23 queries , Gzip On.

© 2016 TVBI无线新天地 | 环球网络

Powered by Discuz! X3.4 GUI: HQ2.0

快速回復 返回列表